#TITLE:负担;
#SUBTITLE:;
#ARTIST:白智英(Baek Ji Young);
#TITLETRANSLIT:;
#SUBTITLETRANSLIT:;
#ARTISTTRANSLIT:;
#CREDIT:;
#BANNER:-logo.jpg;
#BACKGROUND:.JPG;
#LYRICSPATH:;
#CDTITLE:Lan.png;
#MUSIC:.mp3;
#OFFSET:-0.020;
#SAMPLESTART:100.000;
#SAMPLELENGTH:12.000;
#SELECTABLE:YES;
#BPMS:0.000=139.970;
#STOPS:;
#BGCHANGES:;
// cache tags:
#FIRSTBEAT:8.000;
#LASTBEAT:320.000;
#SONGFILENAME:Songs/Super Dancer Online//.sm;
#HASMUSIC:1;
#HASBANNER:1;
#MUSICLENGTH:137.890;
// end cache tags

//---------------dance-single - sky----------------
#NOTES:
     dance-single:
     sky:
     Hard:
     10:
     1.000,1.000,1.000,0.203,0.551,722.000,219.000,28.000,0.000,10.000:

0000
0000
0000
0000
,
0000
0000
0000
0000
,
1000
0000
0001
0000
0100
0010
0000
1000
0100
0000
0001
0000
0010
0000
0100
0000
,
1000
0000
0010
0000
0100
0010
0000
1000
0010
0000
0100
0000
0010
0000
0001
0000
,
1100
0000
0010
0000
0100
0001
0000
0001
0010
0000
1000
0000
0100
0000
0010
0000
,
0001
0000
1000
0000
0010
0100
0000
0001
0010
0000
0100
0000
0010
0000
0001
0000
,
1100
0000
0001
0000
1100
0010
0000
0100
1010
0000
0100
0000
1010
0000
0001
0000
,
1100
0000
0001
0000
1100
0010
0000
0100
1010
0000
0100
0000
1010
0000
1001
0000
,
0001
0000
0100
0000
0011
1000
0000
0100
0011
0000
0100
0000
0011
0000
1001
0000
,
0101
0000
1010
0000
0101
0010
1000
1100
0011
0000
1100
0000
0101
0000
1010
1000
,
1000
0100
1001
0100
1000
0100
1001
0100
,
1000
0100
1001
0100
1000
0100
1001
0101
,
0001
0010
1001
0010
0001
0010
1001
0010
,
2002
0000
0000
0000
0000
0000
0000
3003
,
1020
0000
0001
0000
1000
0000
0001
0000
1000
0030
0101
0000
1010
0000
0101
0000
,
1020
0001
1000
0001
1030
0001
1010
1001
,
2100
0000
0001
0000
0100
0000
0001
3000
1100
0000
0011
0000
1010
0000
0101
0000
,
0120
0000
0001
0000
0100
0000
0001
0030
1100
0000
1001
0000
1100
0000
1001
0000
,
0110
0000
0001
0000
1010
0000
1002
0000
0100
0000
1000
0000
0010
0000
0100
0003
,
1010
0000
0100
0000
1010
0000
0102
0000
0100
0000
0010
0000
1000
0000
1010
0003
,
0210
0000
0000
0000
1000
0000
0000
0000
0001
0300
0010
0000
1001
0000
1000
0000
,
0201
0000
0010
0000
1000
0000
0010
0300
,
1000
0000
0010
0000
0100
0010
0000
0001
1000
0000
0011
0000
0110
0000
1010
0000
,
0001
0000
0100
0000
0010
0100
0000
1000
0010
0000
1100
0000
1010
0000
0101
0000
,
1000
0000
0010
0000
0100
0010
0000
0001
0100
0000
1000
0000
0101
0000
1010
0000
,
0011
0000
0100
0000
0010
0100
0000
1000
0001
0000
1010
0000
0101
0000
1010
0000
,
0001
0010
1100
0010
0001
0010
1100
0010
,
0100
0010
0101
0010
1000
0100
1001
0101
,
1000
0010
1001
0010
0100
0010
1001
0010
,
1000
0101
1000
0101
1000
1010
1000
1001
,
0010
0100
1000
0100
0010
0101
1001
0110
,
0001
0010
1000
0010
0001
0110
1001
0011
,
1000
0100
0010
0100
1000
0110
1001
0110
,
1000
0100
0010
0100
1001
0110
0011
0110
,
1000
0000
1010
0000
1000
0001
1010
0001
,
0100
0000
0101
0000
0100
1000
0101
1000
,
0010
0000
1010
0000
0010
0001
1010
0100
,
1100
0000
0000
0010
0000
0000
0001
0000
0000
0010
0000
0000
1100
0000
0000
0010
0000
0000
0001
0000
0000
0010
0000
0000
1000
0000
0100
0000
0010
0000
0100
0000
0010
0000
0001
0000
1000
0000
0100
0000
0010
0000
0100
0000
0010
0000
0001
0000
,
2020
0000
0000
0000
0000
0000
0000
3030
,
2001
0000
0010
0000
0100
0000
0010
0000
0001
0000
0010
0000
0100
0000
0001
3000
,
1020
0000
0100
0000
0001
0000
0100
0000
1000
0000
0100
0000
0001
0000
1000
0030
,
0201
0000
0010
0000
1000
0000
0010
0000
0001
0000
0011
0000
1001
0000
0011
0300
,
1002
0000
0100
0000
0010
0000
0100
0000
1000
0000
0010
0000
0100
0000
0010
0003
,
2100
0000
0010
0000
0001
0000
0010
0000
0100
0000
0001
0000
0010
0000
0101
3000
,
0021
0000
0100
0000
1000
0000
0100
0000
0001
0000
0100
0000
1000
0000
0100
0030
,
0001
0010
0001
0010
0001
0100
0001
0100
0001
1000
0001
1000
0010
0100
0010
0100
,
1000
0000
0000
0010
0000
0000
0100
0000
0000
0001
0000
0000
1000
0000
0000
0010
0000
0000
0100
0000
0000
0001
0000
0000
1000
0000
0100
0000
0010
0000
0100
0000
0010
0000
0001
0000
1000
0000
0100
0000
0010
0000
0100
0000
0010
0000
0001
0000
,
1000
0100
1001
0100
1000
0010
1001
1010
,
1000
0100
1010
0100
1000
0100
1001
0100
,
0010
1000
0110
1000
0010
1010
0110
1000
,
0010
0100
0011
0100
0010
0100
0011
0100
,
1000
0010
0001
0010
1000
0010
0001
0011
,
0101
1000
0110
1000
0101
1000
0110
0001
,
1001
0010
0001
0010
1000
0010
0001
0010
1000
0010
0001
0010
1000
0010
0001
0010
,
0100
0000
0000
0010
0000
0000
1000
0000
0000
0001
0000
0000
0100
0000
0000
0010
0000
0000
1000
0000
0000
0001
0000
0000
0100
0000
0010
0000
1000
0000
0001
0000
0100
0000
0010
0000
1000
0000
0001
0000
0100
0000
0010
0000
1000
0000
0001
0000
,
0110
0000
0001
0000
1100
0010
0000
0100
1001
0000
0010
0000
1100
0000
0010
0000
,
1001
0000
0010
0000
1001
0010
0000
0001
1100
0000
0010
0000
1001
0000
1010
0000
,
0101
0000
0010
0000
1001
0100
0000
0010
1001
0000
0100
0000
0011
0000
0100
0000
,
1001
0000
0100
0000
1001
0100
0000
0010
1001
0000
0101
0000
0011
0000
0101
0000
,
1001
0000
0010
0000
1001
0010
0000
0100
0011
0000
0100
0000
1001
0000
0010
0000
,
1100
0000
0010
0000
0101
1000
0000
0100
1010
0000
0001
0000
0110
0000
0110
0000
,
1000
0100
0010
0100
1000
0010
0001
0010
1000
0100
0010
0100
1000
0010
0001
0010
,
1000
0000
0000
0010
0000
0000
1100
0000
0000
0001
0000
0000
1000
0000
0000
0010
0000
0000
1100
0000
0000
0001
0000
0000
1000
0000
0100
0000
0010
0000
0101
0000
1000
0000
0100
0000
0010
0000
0001
0010
1000
0000
0100
0000
0010
1000
0001
0000
,
0100
0000
0010
0000
0101
1000
0010
0000
0101
0000
0010
0000
1100
0000
0010
0000
,
0101
0000
0010
0000
1100
0001
0010
0001
0100
0000
0011
0000
1100
0000
0110
0000
,
1001
0000
0100
0000
1001
0010
0100
0010
1001
0000
0110
0000
1001
0000
0110
0000
,
0001
0000
0100
0000
1001
0010
0100
0000
1001
0000
0011
0000
1001
0000
0011
0000
,
1000
0000
0010
0000
0100
0010
0001
0010
1100
0000
0011
0000
0110
0000
1001
0000
,
1000
0000
0010
0000
0100
1000
0001
0000
1010
0000
0011
0000
1100
0000
0101
0000
,
1010
0001
1010
0001
1100
0001
0110
0001
1100
0010
0100
0010
1100
0001
0010
0001
,
1010
0000
0000
0100
0000
0000
0010
0000
0000
0001
0000
0000
1010
0000
0000
0100
0000
0000
0010
0000
0000
0001
0000
0000
1000
0000
0100
0000
0010
0000
0001
0000
1000
0000
0100
0000
0010
0000
0001
0000
1000
0000
0100
0000
0010
0000
0001
0000
,
1100
0010
1200
0001
1000
0010
1001
0310
,
1002
0000
0100
0000
1000
0000
0010
0000
1000
0000
0100
0003
1001
0000
0101
0000
,
1020
0000
0100
0000
1000
0000
0001
0000
0100
0000
1001
0000
0100
0000
0001
0030
,
1200
0000
0010
0000
1000
0000
0001
0000
1000
0000
1010
0300
1001
0000
1010
0000
,
0101
0000
1000
0000
0110
0000
1002
0000
0100
0000
1000
0000
0010
0000
0100
0003
,
1000
0000
0100
0000
1010
0000
0102
0000
1000
0000
0100
0000
1010
0000
1100
0003
,
2020
0000
0000
0000
0000
0000
0000
0000
0000
3030
0101
0000
1010
0000
0101
0000
,
1010
0000
0000
0100
0000
0000
0001
0000
0000
0010
0000
0000
1000
0000
0000
0100
0000
0000
0010
0000
0000
0100
0000
0000
0001
0000
0010
0000
0100
0000
0010
0000
0100
0000
1000
0000
0001
0000
0010
0000
0100
0000
0010
0000
0100
0000
1000
0000
,
0022
0000
0000
0000
,
0033
0000
0000
0000
;
